˹ѧͧѭͺʹͧ©ҡ˴ ᷧ Ыǡ Ҵ ѡ͡ѹ ͡ԧѹʹЩٴ

ѺҾعçẺѺ˹ѧ˴



2160p.BluRay.REMUX.HEVC.DTS-X.7.1

§ DTS- PGS Ѵ


ͧѧء ὧ仴¡ûѵ ѹҵԡһչ Ҩ繾ҹҴ٪ǧ 12 顮繻Шӷء ͵͹ѺûѵԷ鹴¡繡÷ ͧẺ The First Purge ŴѵҡáҪҡʹ駻͵ӡ ˹繵 þɼ͵ԡؤ (NFFA) 鷴ͺɯԧѧԷҷ餹Ŵ¤ ͡˹觤׹㹪ҧ ͤعçͧ顴зСѺҴ Ǣͧ赡ҧ ǤԴ֧кҴҡͧҹ͡١ ٷͧ Ш价ǻ...!!!


Format : Matroska
Format version : Version 4
File size : 48.9 GiB
Duration : 1 h 37 min
Overall bit rate mode : Variable
Overall bit rate : 71.9 Mb/s
Movie name : [email protected]0

Video
ID : 1
Format : HEVC
Format/Info : High Efficiency Video Coding
Commercial name : HDR10
Format profile : Main [email protected]@High
Codec ID : V_MPEGH/ISO/HEVC
Duration : 1 h 37 min
Bit rate : 64.3 Mb/s
Width : 3 840 pixels
Height : 2 160 pixels
Display aspect ratio : 16:9
Frame rate mode : Constant
Frame rate : 23.976 (24000/1001) FPS
Color space : YUV
Chroma subsampling : 4:2:0 (Type 2)
Bit depth : 10 bits
Bits/(Pixel*Frame) : 0.323
Stream size : 43.7 GiB (89%)
Title : [email protected]0
Writing library : ATEME Titan File 3.8.16 (4.8.16.0)
Default : Yes
Forced : No
Color range : Limited
Color primaries : BT.2020
Transfer characteristics : PQ
Matrix coefficients : BT.2020 non-constant
Mastering display color primaries : Display P3
Mastering display luminance : min: 0.0050 cd/m2, max: 1000 cd/m2
Maximum Content Light Level : 1000 cd/m2
Maximum Frame-Average Light Level : 202 cd/m2

Audio #1
ID : 2
Format : DTS XLL X
Format/Info : Digital Theater Systems
Commercial name : DTS-HD Master Audio
Codec ID : A_DTS
Duration : 1 h 37 min
Bit rate mode : Variable
Bit rate : 6 816 kb/s
Channel(s) : 8 channels
Channel(s)_Original : Object Based
Channel layout : Object Based
Sampling rate : 48.0 kHz
Frame rate : 93.750 FPS (512 SPF)
Stream size : 4.64 GiB (9%)
Title : English DTS-X 7.1
Language : English
Default : Yes
Forced : No

Audio #2
ID : 4
Format : DTS
Format/Info : Digital Theater Systems
Codec ID : A_DTS
Duration : 1 h 37 min
Bit rate mode : Constant
Bit rate : 768 kb/s
Channel(s) : 6 channels
Channel layout : C L R Ls Rs LFE
Sampling rate : 48.0 kHz
Frame rate : 93.750 FPS (512 SPF)
Bit depth : 24 bits
Compression mode : Lossy
Stream size : 535 MiB (1%)
Title : Thai DTS
Language : Thai
Default : No
Forced : No

Text #1
ID : 3
Format : PGS
Muxing mode : zlib
Codec ID : S_HDMV/PGS
Codec ID/Info : Picture based subtitle format used on BDs/HD-DVDs
Duration : 1 h 33 min
Bit rate : 14.9 kb/s
Count of elements : 2992
Stream size : 9.90 MiB (0%)
Title : English PGS
Language : English
Default : Yes
Forced : No

Text #2
ID : 5
Format : PGS
Muxing mode : zlib
Codec ID : S_HDMV/PGS
Codec ID/Info : Picture based subtitle format used on BDs/HD-DVDs
Duration : 1 h 36 min
Bit rate : 8 533 b/s
Count of elements : 2430
Stream size : 5.89 MiB (0%)
Title : Thai PGS
Language : Thai
Default : No
Forced : Yes











Download: cornfile
http://cornfile.com/e6r5kqjq679p
Download: mekafile
http://www.mekafile.com/dl.php?f=yAbf79bMkCRq