+ Reply to Thread
Results 1 to 3 of 3
  1. #1
    Administrators Duckload.us's Avatar
    Join Date
    Dec 2010
    Posts
    95,887
    Thanks
    9
    Thanked 97,778 Times in 47,034 Posts

    Question [เกาหลี]-The.Villainess(Ak-Nyeo)สวย.แค้น.โหด.(บุษบาล้างแค้น)2017.BDRip.1080p. x264.DTS [ พากย์ไทยมาสเตอร์ + เกาหลี DTS 5.1 ] [ บรรยายไทย + อังกฤษ ]-Blu-ray.H.264.1080p. [Master]-[พากย์ไทย บรรยายไทย]







    เรื่องราวของ ซุกฮี หญิงสาวที่พ่อถูกฆ่าตายตั้งแต่เด็ก จึงถูกแก็งมาเฟียเลี้ยงดูและได้รับการฝึกฝนให้เป็นนั กฆ่า ซึ่งเธอก็ตั้งใจจะตามล่าและล้างแค้นให้พ่อของเธอให้ไ ด้
    จนได้ทำภารกิจไล่ล่าบุกทลายแก๊งค้ายาด้วยการสังหารเร ียบ แต่กลับถูกดึงตัวจากรัฐบาลให้มาเป็นสายลับเพื่อโค่นล ้มองค์กรมาเฟีย
    แลกกับอิสระภาพถ้าทำภารกิจแรกสำเร็จ ซึ่งระหว่างฝึกฝนอยู่กับหน่วยรัฐเธอได้ตั้งท้องโดยไม ่รู้ตัวกับคนรักที่เป็นหัวหน้าแก็งมาเฟีย เธอจึงคิดอยากจะทำภาระกิจให้สำเร็จเพื่อที่จะได้ออกไ ปใช้ชีวิตแบบคนธรรมดาทั่วไป
    จนภาระกิจสำเร็จดั่งตั้งใจ เธอได้ออกไปอาศัยอยู่ในอพาร์ทเม้นท์แห่งหนึ่ง โดยที่หารู้ไม่ว่าถูกจับตามองผ่านกล้องตลอด 24 ชั่วโมง และมีหนุ่มหล่อข้างห้องที่ถูกส่งมาตามาติดเธอ เมื่อเธอรู้ว่าถูกหักหลัง ทำลายความหวัง
    การล้างแค้นจึงเริ่มต้นขึ้น




    General
    Unique ID : 215535782848232017258649512987585752243 (0xA226AE8C3E28EA7E97B94ED159752CB3)
    Complete name : F:The.Villainess(Ak-Nyeo).2017.BDRip.1080p.x264.DTS-GEEJAA
    Format : Matroska
    Format version : Version 4 / Version 2
    File size : 4.73 GiB
    Duration : 2h 3mn
    Overall bit rate : 5 487 Kbps
    Movie name : The.Villainess(Ak-Nyeo).2017.BDRip.1080p.x264.DTS-GEEJAA
    Encoded date : UTC 2018-11-07 05:24:49
    Writing application : mkvmerge v6.0.0 ( Coming Up For Air ) built on Jan 20 2013 09:52:00
    Writing library : libebml v1.3.0 + libmatroska v1.4.0
    DURATION : 01:58:07.407000000
    NUMBER_OF_FRAMES : 850
    NUMBER_OF_BYTES : 3794675
    _STATISTICS_WRITING_APP : mkvmerge v18.0.0 ( Apricity ) 64-bit
    _STATISTICS_WRITING_DATE_UTC : 2017-12-31 08:17:07
    _STATISTICS_TAGS : BPS DURATION NUMBER_OF_FRAMES NUMBER_OF_BYTES
    Attachment : Yes

    Video
    ID : 1
    Format : AVC
    Format/Info : Advanced Video Codec
    Format profile : [email protected]
    Format settings, CABAC : Yes
    Format settings, ReFrames : 5 frames
    Codec ID : V_MPEG4/ISO/AVC
    Duration : 2h 3mn
    Nominal bit rate : 3 000 Kbps
    Width : 1 920 pixels
    Height : 804 pixels
    Display aspect ratio : 2.40:1
    Frame rate mode : Constant
    Frame rate : 24.000 fps
    Color space : YUV
    Chroma subsampling : 4:2:0
    Bit depth : 8 bits
    Scan type : Progressive
    Bits/(Pixel*Frame) : 0.081
    Writing library : x264 core 148 r2708 86b7198
    Encoding settings : cabac=1 / ref=5 / deblock=1:0:0 / analyse=0x3:0x113 / me=umh / subme=9 / psy=1 / psy_rd=1.00:0.00 / mixed_ref=1 / me_range=16 / chroma_me=1 / trellis=2 / 8x8dct=1 / cqm=0 / deadzone=21,11 / fast_pskip=0 / chroma_qp_offset=-2 / threads=12 / lookahead_threads=1 / sliced_threads=0 / nr=0 / decimate=1 / interlaced=0 / bluray_compat=0 / constrained_intra=0 / bframes=3 / b_pyramid=2 / b_adapt=2 / b_bias=0 / direct=1 / weightb=1 / open_gop=0 / weightp=2 / keyint=240 / keyint_min=24 / scenecut=40 / intra_refresh=0 / rc_lookahead=40 / rc=2pass / mbtree=1 / bitrate=3000 / ratetol=1.0 / qcomp=0.60 / qpmin=0 / qpmax=69 / qpstep=4 / cplxblur=20.0 / qblur=0.5 / vbv_maxrate=62500 / vbv_bufsize=78125 / nal_hrd=none / filler=0 / ip_ratio=1.40 / aq=1:1.00
    Language : Korean
    Default : Yes
    Forced : No
    DURATION : 02:03:22.000000000
    NUMBER_OF_FRAMES : 177648
    NUMBER_OF_BYTES : 2773119885
    _STATISTICS_WRITING_APP : mkvmerge v18.0.0 ( Apricity ) 64-bit
    _STATISTICS_WRITING_DATE_UTC : 2017-12-31 08:17:07
    _STATISTICS_TAGS : BPS DURATION NUMBER_OF_FRAMES NUMBER_OF_BYTES
    Color primaries : BT.709
    Transfer characteristics : BT.709
    Matrix coefficients : BT.709

    Audio #1
    ID : 2
    Format : AC-3
    Format/Info : Audio Coding 3
    Mode extension : CM (complete main)
    Format settings, Endianness : Big
    Codec ID : A_AC3
    Duration : 2h 3mn
    Bit rate mode : Constant
    Bit rate : 640 Kbps
    Channel(s) : 6 channels
    Channel positions : Front: L C R, Side: L R, LFE
    Sampling rate : 48.0 KHz
    Bit depth : 16 bits
    Compression mode : Lossy
    Delay relative to video : -21ms
    Stream size : 565 MiB (12%)
    Title : ThaiMaster2.0MixTo5.1
    Language : Thai
    Default : Yes
    Forced : Yes
    DURATION : 02:03:22.004000000
    NUMBER_OF_FRAMES : 346969
    NUMBER_OF_BYTES : 295206103
    _STATISTICS_WRITING_APP : mkvmerge v18.0.0 ( Apricity ) 64-bit
    _STATISTICS_WRITING_DATE_UTC : 2017-12-31 08:17:07
    _STATISTICS_TAGS : BPS DURATION NUMBER_OF_FRAMES NUMBER_OF_BYTES

    Audio #2
    ID : 3
    Format : DTS
    Format/Info : Digital Theater Systems
    Mode : 16
    Format settings, Endianness : Big
    Codec ID : A_DTS
    Duration : 2h 3mn
    Bit rate mode : Constant
    Bit rate : 1 509 Kbps
    Channel(s) : 6 channels
    Channel positions : Front: L C R, Side: L R, LFE
    Sampling rate : 48.0 KHz
    Bit depth : 24 bits
    Compression mode : Lossy
    Delay relative to video : -15ms
    Stream size : 1.30 GiB (28%)
    Title : Korean DTS 5.1
    Language : Korean
    Default : No
    Forced : No

    Audio #3
    ID : 4
    Format : AAC
    Format/Info : Advanced Audio Codec
    Format profile : LC
    Codec ID : A_AAC
    Duration : 2h 3mn
    Channel(s) : 6 channels
    Channel positions : Front: L C R, Side: L R, LFE
    Sampling rate : 48.0 KHz
    Compression mode : Lossy
    Delay relative to video : -21ms
    Title : Korean Surround 5.1
    Language : Korean
    Default : No
    Forced : No

    Text #1
    ID : 5
    Format : PGS
    Muxing mode : zlib
    Codec ID : S_HDMV/PGS
    Codec ID/Info : The same subtitle format used on BDs/HD-DVDs
    Title : Thai PGS
    Language : Thai
    Default : Yes
    Forced : Yes
    DURATION : 02:03:02.291000000
    NUMBER_OF_FRAMES : 1738
    NUMBER_OF_BYTES : 15074464
    _STATISTICS_WRITING_APP : mkvmerge v18.0.0 ( Apricity ) 64-bit
    _STATISTICS_WRITING_DATE_UTC : 2017-12-31 08:17:07
    _STATISTICS_TAGS : BPS DURATION NUMBER_OF_FRAMES NUMBER_OF_BYTES

    Text #2
    ID : 6
    Format : PGS
    Muxing mode : zlib
    Codec ID : S_HDMV/PGS
    Codec ID/Info : The same subtitle format used on BDs/HD-DVDs
    Title : English PGS
    Language : English
    Default : No
    Forced : No

    Text #3
    ID : 7
    Format : VobSub
    Muxing mode : zlib
    Codec ID : S_VOBSUB
    Codec ID/Info : The same subtitle format used on DVDs
    Title : Thai Vobsub
    Language : Thai
    Default : No
    Forced : No

    เครดิตไฟล์ : [email protected]

    SS










    เครดิตไฟล์ : [email protected]




    Download: cornfile
    http://cornfile.com/5ogxvyz9gwum
    Download: mekafile
    http://www.mekafile.com/dl.php?f=uSade6bMiity

  2. The Following 5 Users Say Thank You to Duckload.us For This Useful Post:

    apichartdear (11-07-2018), Jodz14 (11-13-2018), NaiWan (11-07-2018), noi54 (11-07-2018), sawara (11-07-2018)

  3. #2
    Member
    Join Date
    Dec 2013
    Posts
    96
    Thanks
    53
    Thanked 0 Times in 0 Posts
    ขอบคุณครับ

  4. #3
    Senior Member
    Join Date
    Jun 2014
    Posts
    347
    Thanks
    0
    Thanked 0 Times in 0 Posts
    ขอบคุณครับ

+ Reply to Thread

Thread Information

Users Browsing this Thread

There are currently 1 users browsing this thread. (0 members and 1 guests)

     

Posting Permissions

  • You may not post new threads
  • You may not post replies
  • You may not post attachments
  • You may not edit your posts