+ Reply to Thread
Results 1 to 4 of 4
  1. #1
    Administrators Duckload.us's Avatar
    Join Date
    Dec 2010
    Posts
    94,436
    Thanks
    9
    Thanked 96,787 Times in 46,552 Posts

    Question []-[#ʴ͹! Ѵç] Johnny English Strikes Again (2018) Ѥ ٹ ٹ ҡ #[˹ѧ] : [ҡç 2.0 + §ѧ 2.0] : 720p [CAM] : [Modified]

    Johnny English Strikes Again



    Rating: 6.6/10 Year: 2018 Genres: Action / Adventure / Comedy Runtime: 88 min Language: English Director: David Kerr Writers: William Davies Cast: Olga Kurylenko / Emma Thompson / Rowan AtkinsonPlot:

    JOHNNY ENGLISH STRIKES AGAIN is the third installment of the Johnny English comedy series, with Rowan Atkinson returning as the much loved accidental secret agent. The new adventure begins when a cyber-attack reveals the identity of all active undercover agents in Britain, leaving Johnny English as the Secret Service's last hope. Called out of retirement, English dives head first into action with the mission to find the mastermind hacker. As a man with few skills and analog methods, Johnny English must overcome the challenges of modern technology to make this mission a success.

    Johnny English Strikes Again (2018) Ѥ ٹ ٹ ҡ
    #ͧ : ü¤͡èҧ Ѻѧɷѧ˹ҷ㹻Ѩغѹ١Դµ 칹 ԧԪ ֧繤ѧش áԨäΤǩҨ еͧҪФҷ¢ͧ෤ ͷáԨ !!!


    Video
    ID : 1
    Format : AVC
    Format/Info : Advanced Video Codec
    Format profile : [email protected]
    Format settings : CABAC / 16 Ref Frames
    Format settings, CABAC : Yes
    Format settings, RefFrames : 16 frames
    Codec ID : V_MPEG4/ISO/AVC
    Duration : 1 h 23 min
    Bit rate mode : Variable
    Bit rate : 2 000 kb/s
    Maximum bit rate : 18.0 Mb/s
    Width : 720 pixels
    Height : 314 pixels
    Display aspect ratio : 2.25:1
    Frame rate mode : Constant
    Frame rate : 29.970 (30000/1001) FPS
    Color space : YUV
    Chroma subsampling : 4:2:0
    Bit depth : 8 bits
    Scan type : Progressive
    Bits/(Pixel*Frame) : 0.295
    Stream size : 1.17 GiB (83%)
    Title : Johnny.English.Strikes.Again.2018.CAM.x264.AC3.THR 2.0_Scarlett98
    Writing library : x264 core 148
    Encoding settings : cabac=1 / ref=16 / deblock=1:0:0 / analyse=0x3:0x113 / me=hex / subme=7 / psy=1 / psy_rd=1.00:0.00 / mixed_ref=1 / me_range=16 / chroma_me=1 / trellis=1 / 8x8dct=1 / cqm=1 / deadzone=21,11 / fast_pskip=1 / chroma_qp_offset=-2 / threads=10 / lookahead_threads=1 / sliced_threads=0 / slices=1 / nr=0 / decimate=1 / interlaced=0 / minigop=0 / stitchable=1 / constrained_intra=0 / bframes=3 / b_pyramid=0 / b_adapt=1 / b_bias=0 / direct=1 / weightb=1 / open_gop=0 / weightp=2 / keyint=250 / keyint_min=25 / scenecut=40 / intra_refresh=0 / rc_lookahead=40 / rc=abr / mbtree=1 / bitrate=2000 / ratetol=1.0 / qcomp=0.60 / qpmin=3 / qpmax=69 / qpstep=4 / vbv_maxrate=18000 / vbv_bufsize=18000 / nal_hrd=vbr / filler=0 / ip_ratio=1.40 / aq=1:1.00
    Default : Yes
    Forced : No

    Audio #1
    ID : 2
    Format : AC-3
    Format/Info : Audio Coding 3
    Codec ID : A_AC3
    Duration : 1 h 23 min
    Bit rate mode : Constant
    Bit rate : 192 kb/s
    Channel(s) : 2 channels
    Channel positions : Front: L R
    Sampling rate : 48.0 kHz
    Frame rate : 31.250 FPS (1536 SPF)
    Bit depth : 16 bits
    Compression mode : Lossy
    Stream size : 115 MiB (8%)
    Title : Thai Rong 2.0 Modified By Scarlett98
    Language : Thai
    Service kind : Complete Main
    Default : Yes
    Forced : No

    Audio #2
    ID : 3
    Format : AC-3
    Format/Info : Audio Coding 3
    Codec ID : A_AC3
    Duration : 1 h 23 min
    Bit rate mode : Constant
    Bit rate : 224 kb/s
    Channel(s) : 2 channels
    Channel positions : Front: L R
    Sampling rate : 48.0 kHz
    Frame rate : 31.250 FPS (1536 SPF)
    Bit depth : 16 bits
    Compression mode : Lossy
    Stream size : 134 MiB (9%)
    Title : English 2.0
    Language : English
    Service kind : Complete Main
    Default : No
    Forced : No



    Download: cornfile
    http://cornfile.com/rkt3p3gga0my
    Download: mekafile
    http://www.mekafile.com/dl.php?f=oBc31fbLcboo

  2. The Following 2 Users Say Thank You to Duckload.us For This Useful Post:

    PUNKROCK (10-13-2018), Wesker_TOT (10-12-2018)

  3. #2
    Senior Member
    Join Date
    Jun 2014
    Posts
    283
    Thanks
    0
    Thanked 0 Times in 0 Posts
    ͺسѺ

  4. #3
    Senior Member PUNKROCK's Avatar
    Join Date
    Jul 2011
    Posts
    1,168
    Thanks
    1,025
    Thanked 0 Times in 0 Posts
    . ⪤դآ ФѺ ͺФسҹ
    PUNKROCK NEVERDIE

  5. #4
    Senior Member gozilla02's Avatar
    Join Date
    Jul 2012
    Posts
    186
    Thanks
    70
    Thanked 1 Time in 1 Post
    ͺسѺ
    http://rabbitfileloveav.blogspot.com/ Ŵ˹ѧ AV 18+ش Ѿവءѹ շء 1080P Cornfile 10000 ͧ

Thread Information

Users Browsing this Thread

There are currently 1 users browsing this thread. (0 members and 1 guests)

     

Posting Permissions

  • You may not post new threads
  • You may not post replies
  • You may not post attachments
  • You may not edit your posts