+ Reply to Thread
Results 1 to 3 of 3
  1. #1
    Administrators Duckload.us's Avatar
    Join Date
    Dec 2010
    Posts
    94,327
    Thanks
    9
    Thanked 96,716 Times in 46,528 Posts

    Question []-[#! Ѵç] The House with a Clock in its Walls (2018) ҹǷйԡҶþ #[˹ѧ] : [ҡç 2.0 + §ѧ 2.0] : [720p HDCAM] : [Modified] : [硾ԡ˹!]

    The House with a Clock in Its Walls



    Rating: 6.3/10 Year: 2018 Genres: Comedy / Family / Fantasy / Horror / Mystery / Sci-Fi / Thriller Runtime: 105 min Language: English Director: Eli Roth Writers: Eric Kripke / John Bellairs Cast: Jack Black / Cate Blanchett / Owen VaccaroPlot:

    Lewis Barnavelt, after losing his parents, is sent to Michigan to live with his uncle Jonathan. He discovers his uncle is a warlock, and enters a world of magic and sorcery. But this power is not limited to good people: Lewis learns of Isaac Izard, an evil wizard who wanted to cause the Apocalypse so that he could see what happened afterwards. To do this, he constructed a magical clock with black magic, as long as it exists it will keep ticking, counting down to doomsday. He died before he could finish the clock, but he hid the clock in his house, where Uncle Jonathan now lives. Now Lewis and Jonathan must find the clock before it's too late, and before Isaac's wife, Selena, gets to it.

    #The House with a Clock in its Walls (2018) ҹǷйԡҶþ
    #͹! ˹ѧѴç §ç 2.0

    The House with a Clock in its Walls (2018) ҹǷйԡҶþ
    #ͧ : Ҿ¹ΌҫռҧҡóشԤ The House with a Clock in its Wall ҹǷйԡҶþ ѺͧǡüѹҾǧѹѧͧ 硪 10 Ǻ ( Ǥ) Ѻا㹺ҹѧҷդ֡Ѻ ҡš֡Ѻͧ ͺѧԭ任ء¢ !!!

    Video
    ID : 1
    Format : AVC
    Format/Info : Advanced Video Codec
    Format profile : [email protected]
    Format settings : CABAC / 6 Ref Frames
    Format settings, CABAC : Yes
    Format settings, RefFrames : 6 frames
    Codec ID : V_MPEG4/ISO/AVC
    Duration : 1 h 38 min
    Bit rate mode : Variable
    Bit rate : 3 312 kb/s
    Maximum bit rate : 18.0 Mb/s
    Width : 1 280 pixels
    Height : 536 pixels
    Display aspect ratio : 2.40:1
    Frame rate mode : Constant
    Frame rate : 29.970 (30000/1001) FPS
    Standard : Component
    Color space : YUV
    Chroma subsampling : 4:2:0
    Bit depth : 8 bits
    Scan type : Progressive
    Bits/(Pixel*Frame) : 0.161
    Stream size : 2.29 GiB (89%)
    Title : The.House.with.a.Clock.in.Its.Walls.2018.720p.HDCA M.x264.AC3.THR2.0_Scarlett98
    Writing library : x264 core 148
    Encoding settings : cabac=1 / ref=6 / deblock=1:0:0 / analyse=0x3:0x113 / me=hex / subme=7 / psy=1 / psy_rd=1.00:0.00 / mixed_ref=1 / me_range=16 / chroma_me=1 / trellis=1 / 8x8dct=1 / cqm=1 / deadzone=21,11 / fast_pskip=1 / chroma_qp_offset=-2 / threads=12 / lookahead_threads=2 / sliced_threads=0 / slices=1 / nr=0 / decimate=1 / interlaced=0 / minigop=0 / stitchable=1 / constrained_intra=0 / bframes=3 / b_pyramid=0 / b_adapt=1 / b_bias=0 / direct=1 / weightb=1 / open_gop=0 / weightp=2 / keyint=250 / keyint_min=25 / scenecut=40 / intra_refresh=0 / rc_lookahead=40 / rc=abr / mbtree=1 / bitrate=3312 / ratetol=1.0 / qcomp=0.60 / qpmin=3 / qpmax=69 / qpstep=4 / vbv_maxrate=18000 / vbv_bufsize=18000 / nal_hrd=vbr / filler=0 / ip_ratio=1.40 / aq=1:1.00
    Default : Yes
    Forced : No
    Color range : Limited
    Color primaries : BT.709
    Transfer characteristics : BT.709
    Matrix coefficients : BT.709

    Audio #1
    ID : 2
    Format : AC-3
    Format/Info : Audio Coding 3
    Codec ID : A_AC3
    Duration : 1 h 38 min
    Bit rate mode : Constant
    Bit rate : 192 kb/s
    Channel(s) : 2 channels
    Channel positions : Front: L R
    Sampling rate : 48.0 kHz
    Frame rate : 31.250 FPS (1536 SPF)
    Bit depth : 16 bits
    Compression mode : Lossy
    Stream size : 136 MiB (5%)
    Title : Thai Rong 2.0 Modified By Scarlett98
    Language : Thai
    Service kind : Complete Main
    Default : Yes
    Forced : No

    Audio #2
    ID : 3
    Format : AC-3
    Format/Info : Audio Coding 3
    Codec ID : A_AC3
    Duration : 1 h 38 min
    Bit rate mode : Constant
    Bit rate : 224 kb/s
    Channel(s) : 2 channels
    Channel positions : Front: L R
    Sampling rate : 48.0 kHz
    Frame rate : 31.250 FPS (1536 SPF)
    Bit depth : 16 bits
    Compression mode : Lossy
    Stream size : 158 MiB (6%)
    Title : English 2.0
    Language : English
    Service kind : Complete Main
    Default : No
    Forced : No






    Download: cornfile
    http://cornfile.com/d4jelo2946up
    Download: mekafile
    http://www.mekafile.com/dl.php?f=tWf594bL9m99

  2. The Following User Says Thank You to Duckload.us For This Useful Post:

    Wesker_TOT (10-12-2018)

  3. #2
    Senior Member
    Join Date
    Jun 2014
    Posts
    283
    Thanks
    0
    Thanked 0 Times in 0 Posts
    ͺسѺ

  4. #3
    Senior Member gozilla02's Avatar
    Join Date
    Jul 2012
    Posts
    186
    Thanks
    70
    Thanked 1 Time in 1 Post
    ͺسѺ
    http://rabbitfileloveav.blogspot.com/ Ŵ˹ѧ AV 18+ش Ѿവءѹ շء 1080P Cornfile 10000 ͧ

Thread Information

Users Browsing this Thread

There are currently 1 users browsing this thread. (0 members and 1 guests)

     

Posting Permissions

  • You may not post new threads
  • You may not post replies
  • You may not post attachments
  • You may not edit your posts