+ Reply to Thread
Results 1 to 1 of 1
  1. #1
    Administrators Duckload.us's Avatar
    Join Date
    Dec 2010
    Posts
    95,658
    Thanks
    9
    Thanked 97,613 Times in 46,947 Posts

    Question [ฝรั่ง]-[* ใหม่!!ภาพมาสเตอร์*] Sicario: Day of the Soldado (2018) : ทีมพิฆาตทะลุแดนเดือด 2 [1080p] [* AMZN.WEBRip.THR5.1.x264 [email protected] *] [พากย์ไทยโรง 5.1 + เสียงอังกฤษ DD5.1] • [บรรยายอังกฤษ]



    ภาพยนตร์ผลงาน ของStefano Solima ผู้กำกับชาวอิตาลีที่โด่งดังจากซีรีส์อาชญากรรมเรื่อ งเยี่ยม GAMORRAH
    เมื่อกลุ่มค้ายาเสพติดได้พยายามส่งผู้ก่อการร้ายข้าม พรมแดนมายังสหรัฐฯ “แมตต์ เกรเวอร์” และ นายทหารรับจ้าง “อเล็กฮานโดร” จึงต้องฝ่าอันตรายทำภารกิจเดือดแห่งสงครามยาเสพติดคร ั้งใหญ่ให้ได้!
    &
    ••• [email protected] •••
    พากย์ไทยโรง 5.1 + เสียงอังกฤษ DDP5.1 + บรรยายอังกฤษ


    Sicario Day of the Soldado ยังคงเล่าถึงการเดินหน้าปราบปรามกลุ่มค้ายาเสพติดที่ ชายแดนสหรัฐฯ-เม็กซิโก แต่ครั้งนี้สถานการณ์กลับทวีความรุนแรงยิ่งขึ้น เนื่องจากกลุ่มค้ายาเสพติดได้พยายามส่งผู้ก่อการร้าย ข้ามพรมแดนมายังสหรัฐฯ ดังนั้นเพื่อการรับมือต่อกร “แมตต์ เกรเวอร์” (จอช โบรลิน) หน่วยกองกำลังเฉพาะกิจของรัฐบาล จึงต้องร่วมมือกับนายทหารรับจ้าง “อเล็กฮานโดร” (เบเนซิโอ เดล โตโร) เพื่อฝ่าอันตรายทำภารกิจเดือดแห่งสงครามยาเสพติดครั้ งใหญ่


    Format : Matroska
    Format version : Version 4 / Version 2
    File size : 5.14 GiB
    Duration : 2 h 2 min
    Overall bit rate : 6 016 kb/s
    Movie name : Sicario Day of the Soldado (2018)[email protected] Hts

    Video
    ID : 1
    Format : AVC
    Format/Info : Advanced Video Codec
    Format profile : [email protected]
    Format settings : CABAC / 4 Ref Frames
    Format settings, CABAC : Yes
    Format settings, ReFrames : 4 frames
    Codec ID : V_MPEG4/ISO/AVC
    Duration : 2 h 2 min
    Bit rate : 4 926 kb/s
    Width : 1 920 pixels
    Height : 800 pixels
    Display aspect ratio : 2.40:1
    Frame rate mode : Constant
    Frame rate : 23.976 (24000/1001) FPS
    Color space : YUV
    Chroma subsampling : 4:2:0
    Bit depth : 8 bits
    Scan type : Progressive
    Bits/(Pixel*Frame) : 0.134
    Stream size : 4.21 GiB (82%)
    Title : Sicario Day of the Soldado (2018)[email protected] Hts
    Language : English
    Default : Yes
    Forced : No
    Color range : Limited
    Color primaries : BT.709
    Transfer characteristics : BT.709
    Matrix coefficients : BT.709

    Audio #1
    ID : 2
    Format : AC-3
    Format/Info : Audio Coding 3
    Codec ID : A_AC3
    Duration : 2 h 2 min
    Bit rate mode : Constant
    Bit rate : 448 kb/s
    Channel(s) : 6 channels
    Channel positions : Front: L C R, Side: L R, LFE
    Sampling rate : 48.0 kHz
    Frame rate : 31.250 FPS (1536 SPF)
    Bit depth : 16 bits
    Compression mode : Lossy
    Stream size : 392 MiB (7%)
    Title : ThaiRong 5.1 @ 448 kb/s By [email protected]
    Language : Thai
    Service kind : Complete Main
    Default : Yes
    Forced : Yes

    Audio #2
    ID : 3
    Format : E-AC-3
    Format/Info : Enhanced Audio Coding 3
    Codec ID : A_EAC3
    Duration : 2 h 2 min
    Bit rate mode : Constant
    Bit rate : 640 kb/s
    Channel(s) : 6 channels
    Channel positions : Front: L C R, Side: L R, LFE
    Sampling rate : 48.0 kHz
    Frame rate : 187.500 FPS (256 SPF)
    Compression mode : Lossy
    Stream size : 560 MiB (11%)
    Title : English DDP5.1 @ 640 kb/s
    Language : English
    Service kind : Complete Main
    Default : No
    Forced : No

    Text
    ID : 4
    Format : UTF-8
    Codec ID : S_TEXT/UTF8
    Codec ID/Info : UTF-8 Plain Text
    Duration : 2 h 1 min
    Bit rate : 32 b/s
    Count of elements : 1176
    Stream size : 29.1 KiB (0%)
    Title : English
    Language : English
    Default : No
    Forced : No












    Download: cornfile
    http://cornfile.com/2o2xctriryn8
    Download: mekafile
    http://www.mekafile.com/dl.php?f=qL1fb4bK4V8p

  2. The Following 3 Users Say Thank You to Duckload.us For This Useful Post:

    masaomi (09-16-2018), MidNightt (09-16-2018), noi54 (09-14-2018)

+ Reply to Thread

Thread Information

Users Browsing this Thread

There are currently 1 users browsing this thread. (0 members and 1 guests)

     

Posting Permissions

  • You may not post new threads
  • You may not post replies
  • You may not post attachments
  • You may not edit your posts