+ Reply to Thread
Results 1 to 2 of 2
  1. #1
    Administrators Duckload.us's Avatar
    Join Date
    Dec 2010
    Posts
    93,358
    Thanks
    9
    Thanked 95,805 Times in 46,107 Posts

    Question [ฝรั่ง]-[* ใหม่!!ภาพมาสเตอร์+ เสียงไทยโรง 5.1 *] Solo: A Star Wars Story (2018) : ฮาน โซโล: ตำนานสตาร์ วอร์ส [1080p] [* BluRay.AC-3.THR5.1.H264 [email protected] *] [พากย์ไทยโรง 5.1 + เสียงอังกฤษ DTS] [บรรยายอังกฤษ]



    ••• [email protected] •••
    พากย์ไทยโรง 5.1 + เสียงอังกฤษ DTS + บรรยายอังกฤษ

    Han Solo ด้วยยานมิลเลเนียมฟัลคอน และการผจญภัยในกาแล็กซี่อันแสนไกลโพ้น ใน Solo: A Star Wars Story นี่คือการผจญภัยครั้งใหม่ของตัวโกงที่ผู้คนหลงรักมาก ที่สุดในจักรวาล ผ่านเรื่องราวความกล้าหาญในการเข้าไปผจญในโลกใต้ดินข องเหล่าอาชญากรอันแสนอันตราย ฮาน โซโลได้พบกับสุดยอดนักบินคู่หูของเขา ชิวเบคก้า และต้องเผชิญหน้ากับนักพนันสุดร้ายกาจ Lando Calrissian ในการผจญภัยครั้งนี้จะเป็นหนึ่งในเรื่องราวของสตาร์ว อร์สที่ห่างไกลจากคำว่าฮีโร่มากที่สุด

    Format : Matroska
    Format version : Version 4 / Version 2
    File size : 4.20 GiB
    Duration : 2 h 14 min
    Overall bit rate : 4 459 kb/s
    Movie name : Solo A Star Wars Story (2018)[email protected]

    Video
    ID : 1
    Format : AVC
    Format/Info : Advanced Video Codec
    Format profile : [email protected]
    Format settings : CABAC / 4 Ref Frames
    Format settings, CABAC : Yes
    Format settings, ReFrames : 4 frames
    Codec ID : V_MPEG4/ISO/AVC
    Duration : 2 h 14 min
    Bit rate : 2 500 kb/s
    Width : 1 920 pixels
    Height : 804 pixels
    Display aspect ratio : 2.40:1
    Frame rate mode : Constant
    Frame rate : 23.976 (23976/1000) FPS
    Color space : YUV
    Chroma subsampling : 4:2:0
    Bit depth : 8 bits
    Scan type : Progressive
    Bits/(Pixel*Frame) : 0.068
    Stream size : 2.35 GiB (56%)
    Title : Solo A Star Wars Story (2018)[email protected]
    Writing library : x264 core 152 r2851M ba24899
    Encoding settings : cabac=1 / ref=4 / deblock=1:-1:-1 / analyse=0x3:0x113 / me=umh / subme=9 / psy=1 / psy_rd=1.00:0.15 / mixed_ref=1 / me_range=24 / chroma_me=1 / trellis=2 / 8x8dct=1 / cqm=0 / deadzone=21,11 / fast_pskip=1 / chroma_qp_offset=-3 / threads=32 / lookahead_threads=4 / sliced_threads=0 / nr=0 / decimate=1 / interlaced=0 / bluray_compat=0 / constrained_intra=0 / bframes=3 / b_pyramid=2 / b_adapt=2 / b_bias=0 / direct=3 / weightb=1 / open_gop=0 / weightp=2 / keyint=250 / keyint_min=25 / scenecut=40 / intra_refresh=0 / rc_lookahead=50 / rc=2pass / mbtree=1 / bitrate=2500 / ratetol=1.0 / qcomp=0.60 / qpmin=0 / qpmax=69 / qpstep=4 / cplxblur=20.0 / qblur=0.5 / vbv_maxrate=31250 / vbv_bufsize=31250 / nal_hrd=none / filler=0 / ip_ratio=1.40 / aq=3:1.00
    Language : English
    Default : Yes
    Forced : No

    Audio #1
    ID : 2
    Format : AC-3
    Format/Info : Audio Coding 3
    Codec ID : A_AC3
    Duration : 2 h 14 min
    Bit rate mode : Constant
    Bit rate : 448 kb/s
    Channel(s) : 6 channels
    Channel positions : Front: L C R, Side: L R, LFE
    Sampling rate : 48.0 kHz
    Frame rate : 31.250 FPS (1536 SPF)
    Bit depth : 16 bits
    Compression mode : Lossy
    Stream size : 432 MiB (10%)
    Title : ThaiRong 5.1 @ 448 kb/s By ~Mr.Captain~
    Language : Thai
    Service kind : Complete Main
    Default : Yes
    Forced : Yes

    Audio #2
    ID : 3
    Format : DTS
    Format/Info : Digital Theater Systems
    Codec ID : A_DTS
    Duration : 2 h 14 min
    Bit rate mode : Constant
    Bit rate : 1 509 kb/s
    Channel(s) : 6 channels
    Channel positions : Front: L C R, Side: L R, LFE
    Sampling rate : 48.0 kHz
    Frame rate : 93.750 FPS (512 SPF)
    Bit depth : 24 bits
    Compression mode : Lossy
    Stream size : 1.42 GiB (34%)
    Title : English DTS @ 1,509 kb/s
    Language : English
    Default : No
    Forced : No

    Text
    ID : 4
    Format : UTF-8
    Codec ID : S_TEXT/UTF8
    Codec ID/Info : UTF-8 Plain Text
    Duration : 2 h 5 min
    Bit rate : 56 b/s
    Count of elements : 1957
    Stream size : 51.9 KiB (0%)
    Title : English
    Language : English
    Default : Yes
    Forced : No

    Menu
    00:00:00.000 : en:Opening Credits
    00:00:53.845 : en:Streets of Corellia
    00:02:10.213 : en:Qi ra
    00:03:53.150 : enen of The White Worms
    00:06:00.485 : en:Corellian Speeder Chase
    00:09:27.567 : en:Coronet Spaceport
    00:13:16.045 : en:Recruitment
    00:14:14.020 : en:Mimban Battlefield
    00:16:12.263 : en:None-of-Your-Business Company
    00:19:45.101 : en:The Beast
    00:22:43.821 : en:Mimban Escape
    00:24:37.267 : en:Vandor
    00:27:00.035 : en:Camfire Stories
    00:30:02.926 : en:Conveyex Heist
    00:32:54.681 : en:Marauder Attack
    00:39:09.764 : en: You re in This Life For Good
    00:41:59.225 : en:The Yacht
    00:43:20.181 : enryden Vos
    00:44:32.128 : en:Reunion
    00:48:03.756 : eneal with Crimson Dawn
    00:51:58.324 : en:The Lodge
    00:53:17.528 : en:Full Sabacc
    00:57:23.523 : en:Lando and L3
    01:00:16.780 : en:Millennium Falcon
    01:02:40.882 : en: Buckle Up, Baby
    01:04:51.262 : en: People Are Predictable
    01:05:29.509 : en:Han and Qi ra
    01:07:12.028 : en: Trust No One
    01:08:05.915 : en:Not Cpmpatible
    01:10:00.113 : en:Arrival on Kessel
    01:12:44.193 : en:Into the Mines
    01:14:40.851 : en:Revolt
    01:18:30.873 : en:Kessel Shootout
    01:23:15.741 : en:Into the Maelstrom
    01:26:32.646 : en:Kessel Run
    01:30:33.136 : en:Escaping the Maw
    01:35:19.672 : en:Savareen
    01:37:04.861 : en:The Good Guy
    01:38:52.802 : en:Marauders Return
    01:41:18.531 : en:Enfys Nest
    01:43:02.676 : en:One Last Score
    01:45:27.821 : en:The Delivery
    01:46:32.177 : en:Explosive Stuff
    01:49:45.996 : enouble-Crossings
    01:53:33.890 : enuel with Dryden
    01:57:13.902 : en:Secret Leader
    01:58:55.128 : en:Showdown
    02:01:34.829 : en:Rebellion s Dawn
    02:03:20.893 : en:Sabacc Rematch
    02:06:09.353 : en:End Credits
    02:14:30.000 : en:HDChina












    Solo_A_Star_Wars_Story_(2018)[email protected] 4.2 GB
    Download: cornfile
    http://cornfile.com/k6tjs11d8jx3
    Download: mekafile
    http://www.mekafile.com/dl.php?f=jP3e94bK1X1d

    Solo.A.Star.Wars.Story.2018.1080p.BluRay.x264 @banksrio.mkv size 2.4 GB
    Download: cornfile
    http://cornfile.com/9a79dpo9xxjg
    Download: mekafile
    http://www.mekafile.com/dl.php?f=ax2ae6bK0I5h

  2. The Following 5 Users Say Thank You to Duckload.us For This Useful Post:

    apichartdear (09-13-2018), gaszolineskywalker (09-15-2018), noi54 (09-14-2018), smakha (09-13-2018), Wesker_TOT (09-14-2018)

  3. #2
    Senior Member
    Join Date
    Dec 2013
    Posts
    1,206
    Thanks
    3,123
    Thanked 0 Times in 0 Posts
    ขอบคุณมากๆครับ...

+ Reply to Thread

Thread Information

Users Browsing this Thread

There are currently 1 users browsing this thread. (0 members and 1 guests)

     

Posting Permissions

  • You may not post new threads
  • You may not post replies
  • You may not post attachments
  • You may not edit your posts