+ Reply to Thread
Results 1 to 4 of 4
  1. #1
    Administrators Duckload.us's Avatar
    Join Date
    Dec 2010
    Posts
    94,436
    Thanks
    9
    Thanked 96,787 Times in 46,552 Posts

    Exclamation [ฝรั่ง]-Lock Up (1989) ล็อคอำมหิต -Blu-ray.DTS.1080p. [Modified]-[พากย์ไทย 5.1 + อังกฤษ DTS] [บรรยายไทย PGS + อังกฤษ] เสียง,ซับความคมชัดสู. From DVD Master




    แฟรงค์ ไลโอเน่ (Sylvester Stallone) คือนักโทษที่ใกล้จะพ้นโทษในอีก 6 เดือนข้างหน้า แต่เขากลับถูกพาไปจองจำในคุกสุดโหดตามลำสั่งของวาร์เ ดน ดรัมกูล (Donald Sutherland) ผู้คุมจอมโหดที่มีความแค้นส่วนตัวกับแฟรงค์ เลยทรมานเขาแบบสารพัด จนในที่สุดเขาต้องต่อสู้เพื่ออิสรภาพของตนเอง

    หนังกำกับโดย John Flynn ผู้ที่ได้มาทำ Out For Justice ของพี่ Steven Seagal ในเวลาต่อมา หนังอยู่ในระดับโอเคเลยครับ ผมชอบมากกว่า Over The Top นะ เรื่องนี้ดูได้เรื่อยๆ เหมาะสำหรับคอหนังAction แนวคุกแบบนี้ ถ้าหวังหนังไล่ยิงมันส์ๆ ก็ไม่ใช่เรื่องนี้ครับ มันในคุกอ้ะ จะให้กระหน่ำแบบแรมโบ้ได้ไงล่ะครับ

    ดาราสมทบในเรื่องก็ถือว่าคัดที่มีฝีมือมาทั้งนั้นครั บ ตั้งแต่ John Amos ในบทผู้คุมไมส์เนอร์, Tom Sizemore ในบทดัลลัส เพื่อนร่วมคุกของแฟรงค์, Frank McRae ในบทอีคลิปส์ ช่างประจำคุก และ Darlanne Fluegel ในบทเมลิสซ่า แฟนสาวของแฟรงค์ที่โผล่หน่อยนึงตอนต้นเรื่อง ซึ่งทุกคนก็เล่นได้ดีครับ โดยเฉพาะ Sutherland ที่ไว้ในได้อยู่แล้วเรื่องบทชั่วๆ น่ะ

    เป็นหนังแนวคุกอีกเรื่องที่ทำได้ไม่เลวครับ ก็ถ้าชอบพี่สไลและชอบหนังแนวนี้ เรื่องนี้ก็น่าสนใจนะครับ ไม่เลวเลยล่ะ


    General
    Lock.Up.1989.1080p.DTS.BluRay.H264.mkv
    Format : Matroska
    Format version : Version 4 / Version 2
    File size : 3.38 GiB
    Duration : 1h 48mn
    Overall bit rate : 4 443 Kbps
    Encoded date : UTC 2016-08-10 03:25:57
    Writing application : mkvmerge v8.3.0 ( Over the Horizon ) 32bit
    Writing library : libebml v1.3.1 + libmatroska v1.4.2

    Video
    ID : 1
    Format : AVC
    Format/Info : Advanced Video Codec
    Format profile : [email protected]
    Format settings, CABAC : Yes
    Format settings, ReFrames : 4 frames
    Codec ID : V_MPEG4/ISO/AVC
    Duration : 1h 48mn
    Bit rate : 2 500 Kbps
    Width : 1 920 pixels
    Height : 1 040 pixels
    Display aspect ratio : 1.85:1
    Frame rate mode : Constant
    Frame rate : 24.000 fps
    Color space : YUV
    Chroma subsampling : 4:2:0
    Bit depth : 8 bits
    Scan type : Progressive
    Bits/(Pixel*Frame) : 0.052
    Stream size : 1.90 GiB (56%)
    Writing library : x264 core 148 r2638M 7599210
    Encoding settings : cabac=1 / ref=4 / deblock=1:-1:-1 / analyse=0x3:0x113 / me=umh / subme=9 / psy=1 / psy_rd=1.00:0.15 / mixed_ref=1 / me_range=24 / chroma_me=1 / trellis=2 / 8x8dct=1 / cqm=0 / deadzone=21,11 / fast_pskip=1 / chroma_qp_offset=-3 / threads=32 / lookahead_threads=4 / sliced_threads=0 / nr=0 / decimate=1 / interlaced=0 / bluray_compat=0 / constrained_intra=0 / bframes=3 / b_pyramid=2 / b_adapt=2 / b_bias=0 / direct=3 / weightb=1 / open_gop=0 / weightp=2 / keyint=250 / keyint_min=25 / scenecut=40 / intra_refresh=0 / rc_lookahead=50 / rc=2pass / mbtree=1 / bitrate=2500 / ratetol=1.0 / qcomp=0.60 / qpmin=0 / qpmax=69 / qpstep=4 / cplxblur=20.0 / qblur=0.5 / vbv_maxrate=31250 / vbv_bufsize=31250 / nal_hrd=none / filler=0 / ip_ratio=1.40 / aq=3:1.00
    Default : Yes
    Forced : No

    Audio #1
    ID : 2
    Format : AC-3
    Format/Info : Audio Coding 3
    Mode extension : CM (complete main)
    Format settings, Endianness : Big
    Codec ID : A_AC3
    Duration : 1h 48mn
    Bit rate mode : Constant
    Bit rate : 384 Kbps
    Channel(s) : 6 channels
    Channel positions : Front: L C R, Side: L R, LFE
    Sampling rate : 48.0 KHz
    Frame rate : 31.250 fps (1536 spf)
    Compression mode : Lossy
    Stream size : 299 MiB (9%)
    Language : Thai
    Default : Yes
    Forced : No

    Audio #2
    ID : 3
    Format : DTS
    Format/Info : Digital Theater Systems
    Mode : 16
    Format settings, Endianness : Big
    Codec ID : A_DTS
    Duration : 1h 48mn
    Bit rate mode : Constant
    Bit rate : 1 509 Kbps
    Channel(s) : 6 channels
    Channel positions : Front: L C R, Side: L R, LFE
    Sampling rate : 48.0 KHz
    Frame rate : 93.750 fps (512 spf)
    Bit depth : 24 bits
    Compression mode : Lossy
    Stream size : 1.15 GiB (34%)
    Language : English
    Default : No
    Forced : No

    Text #1
    ID : 4
    Format : VobSub
    Muxing mode : zlib
    Codec ID : S_VOBSUB
    Codec ID/Info : Picture based subtitle format used on DVDs
    Duration : 1h 43mn
    Bit rate : 1 487 bps
    Count of elements : 1551
    Stream size : 1.10 MiB (0%)
    Title : 480p
    Language : Thai
    Default : No
    Forced : No

    Text #2
    ID : 5
    Format : VobSub
    Muxing mode : zlib
    Codec ID : S_VOBSUB
    Codec ID/Info : Picture based subtitle format used on DVDs
    Duration : 1h 43mn
    Bit rate : 2 677 bps
    Count of elements : 1551
    Stream size : 1.98 MiB (0%)
    Title : 720p
    Language : Thai
    Default : No
    Forced : No

    Text #3
    ID : 6
    Format : VobSub
    Muxing mode : zlib
    Codec ID : S_VOBSUB
    Codec ID/Info : Picture based subtitle format used on DVDs
    Duration : 1h 43mn
    Bit rate : 4 421 bps
    Count of elements : 1551
    Stream size : 3.27 MiB (0%)
    Title : 1080p
    Language : Thai
    Default : Yes
    Forced : No

    Text #4
    ID : 7
    Format : VobSub
    Muxing mode : zlib
    Codec ID : S_VOBSUB
    Codec ID/Info : Picture based subtitle format used on DVDs
    Duration : 1h 43mn
    Bit rate : 4 841 bps
    Count of elements : 1551
    Stream size : 3.58 MiB (0%)
    Title : 1080p
    Language : Thai
    Default : No
    Forced : No

    Text #5
    ID : 8
    Format : PGS
    Muxing mode : zlib
    Codec ID : S_HDMV/PGS
    Codec ID/Info : Picture based subtitle format used on BDs/HD-DVDs
    Duration : 1h 43mn
    Bit rate : 19.4 Kbps
    Count of elements : 3102
    Stream size : 14.3 MiB (0%)
    Title : Angsana
    Language : Thai
    Default : No
    Forced : No

    Text #6
    ID : 9
    Format : PGS
    Muxing mode : zlib
    Codec ID : S_HDMV/PGS
    Codec ID/Info : Picture based subtitle format used on BDs/HD-DVDs
    Duration : 1h 43mn
    Bit rate : 17.8 Kbps
    Count of elements : 3102
    Stream size : 13.1 MiB (0%)
    Title : Tahoma
    Language : Thai
    Default : No
    Forced : No

    Text #7
    ID : 10
    Format : UTF-8
    Codec ID : S_TEXT/UTF8
    Codec ID/Info : UTF-8 Plain Text
    Duration : 1h 42mn
    Bit rate : 42 bps
    Count of elements : 1126
    Stream size : 31.5 KiB (0%)
    Title : SRT
    Language : English
    Default : No
    Forced : No










    http://www.mekafile.com/dl.php?f=r36bf51Bz2xr

  2. The Following User Says Thank You to Duckload.us For This Useful Post:

    Visit (08-16-2016)

  3. #2
    Senior Member
    Join Date
    Sep 2014
    Posts
    2,886
    Thanks
    2
    Thanked 0 Times in 0 Posts
    Thanks a bunch.

  4. #3
    Senior Member
    Join Date
    Sep 2013
    Posts
    1,106
    Thanks
    0
    Thanked 1 Time in 1 Post
    ขอบคุณมากๆเลยครับ

  5. #4
    Senior Member
    Join Date
    Jul 2012
    Posts
    5,703
    Thanks
    0
    Thanked 0 Times in 0 Posts
    ขอบคุณมากจ้า

+ Reply to Thread

Thread Information

Users Browsing this Thread

There are currently 1 users browsing this thread. (0 members and 1 guests)

     

Posting Permissions

  • You may not post new threads
  • You may not post replies
  • You may not post attachments
  • You may not edit your posts